<?xml version="1.0" standalone="no"?>
<!DOCTYPE svg PUBLIC "-//W3C//DTD SVG 1.1//EN" "http://www.w3.org/Graphics/SVG/1.1/DTD/svg11.dtd" >
<svg>
<defs>
<font id="inecos Dingbats" horiz-adv-x="250" >
<font-face units-per-em="100" ascent="80" descent="-20" />
<glyph unicode=" " horiz-adv-x="27" d="" />
<glyph unicode="0" horiz-adv-x="68" d="M10.000012127500000 66.000001103599999 C9.999982127499948 65.999971082000002 10.000012127499986 26.000008453600003 10.000012127499986 6.000012128600019 C9.999982127499948 5.999982107000051 42.000006247499982 6.000012128600019 58.000003307500037 6.000012128600019 C57.999973307499999 5.999982126100008 58.000003307500037 36.000006616099995 58.000003307500037 51.000003859800017 C57.999973307499999 50.999973857400050 48.000005145000046 51.000003859800017 43.000006063699971 51.000003859800017 C42.999976063799977 50.999973859900024 43.000006063699971 61.000002022300009 43.000006063699971 66.000001103599971 C42.999976063799977 65.999971103600046 21.000010106199966 66.000001103599971 10.000012127499986 66.000001103599971 zM64.000002205000001 54.000003308600000 C63.999972204999949 53.999973306099946 64.000002204999987 18.000009923600032 64.000002204999987 0.000013231099956 C63.999972204999949 -0.000016771400055 24.000009555000020 0.000013231099956 4.000013230000036 0.000013231099956 C3.999983229999998 -0.000016783499973 4.000013230000036 48.000004411100008 4.000013230000036 72.000000001100034 C3.999983229999998 71.999969986499991 32.000008084999990 72.000000001100034 46.000005512500024 72.000000001100034 C45.999975512499987 71.999970001099996 58.000003307500037 60.000002206100021 64.000002204999987 54.000003308599958 z" />
<glyph unicode="1" horiz-adv-x="80" d="M76.053917438900001 64.040438079200001 C76.053917438900044 46.026958719500044 76.053917438900044 28.013479359700000 76.053917438900044 10.000000000000000 C52.035944959299968 10.000000000000000 28.017972479599962 10.000000000000000 4.000000000000000 10.000000000000000 C4.000000000000000 28.013479359700000 4.000000000000000 46.026958719500044 4.000000000000000 64.040438079200044 C28.017972479599962 64.040438079200044 52.035944959299968 64.040438079200044 76.053917438900044 64.040438079200044 zM10.004493119900001 16.004493119900001 C30.019470286399951 16.004493119899962 50.034446251900022 16.004493119899962 70.049424318999968 16.004493119899962 C70.049424318999968 30.014978067099946 70.049424318999968 44.025460912700055 70.049424318999968 58.035944959299968 C50.034446251900022 58.035944959299968 30.019470286399951 58.035944959299968 10.004493119899962 58.035944959299968 C10.004493119899962 44.025460912700055 10.004493119899962 30.014978067099946 10.004493119899962 16.004493119899962 zM19.011232799799998 47.528081999400001 C18.821969675499986 51.184598845199957 23.677622826599986 53.476489851100041 26.378631472299958 51.002687021899987 C29.303039085899968 48.834392202199979 28.019890014499993 43.666670232199976 24.421820604499999 43.116134170000009 C21.721085763699989 42.488189683499968 18.938335251099943 44.754973501899940 19.011232799800041 47.528081999400001 zM61.042684639100003 22.008986239799999 C47.032199691900018 22.008986239800038 33.021716846300023 22.008986239800038 19.011232799800041 22.008986239800038 C23.014228112999945 27.973450406300003 27.017223726399948 33.937911570600022 31.020219039599965 39.902375737200032 C33.503076944699956 37.940908985400029 35.985934849799946 35.979439231399965 38.468792754800006 34.017972479599962 C40.989680117099965 38.020966892200022 43.510564477100047 42.023964306899984 46.031451839400006 46.026958719500044 C51.035197106700025 38.020966892200022 56.038939371799984 30.014978067099946 61.042684639100003 22.008986239800038 z" />
<glyph unicode="2" horiz-adv-x="68" d="M46.000000000000000 72.000000000000000 C52.000000000000000 66.000000000000000 58.000000000000000 60.000000000000000 64.000000000000000 54.000000000000000 C64.000000000000000 36.000000000000000 64.000000000000000 18.000000000000000 64.000000000000000 0.000000000000000 C43.999999000000003 0.000000000000000 24.000000099999966 0.000000000000000 4.000000000000000 0.000000000000000 C4.000000000000000 24.000000000000000 4.000000000000000 48.000000000000000 4.000000000000000 72.000000000000000 C18.000000099999966 72.000000000000000 31.999999000000003 72.000000000000000 46.000000000000000 72.000000000000000 zM10.000000000000000 6.000000000000000 C25.999999900000034 6.000000000000000 42.000000999999997 6.000000000000000 58.000000000000000 6.000000000000000 C58.000000000000000 21.000000000000000 58.000000000000000 36.000000000000000 58.000000000000000 51.000000000000000 C52.999999000000003 51.000000000000000 48.000000999999997 51.000000000000000 43.000000000000000 51.000000000000000 C43.000000000000000 56.000000099999966 43.000000000000000 60.999999900000034 43.000000000000000 66.000000000000000 C31.999999000000003 66.000000000000000 21.000000099999966 66.000000000000000 10.000000000000000 66.000000000000000 C10.000000000000000 45.999999900000034 10.000000000000000 26.000000999999997 10.000000000000000 6.000000000000000 zM19.078331500000001 19.756989000000001 C21.249600099999952 21.720470999999975 24.004497099999980 22.870089000000007 26.695834900000023 23.928686999999968 C28.303669000000014 27.123459000000025 29.800482999999986 30.375312000000008 31.147395999999958 33.688887000000022 C29.797155999999973 36.658202999999958 28.786549000000036 39.954114000000004 29.134897000000024 43.245135300000015 C29.325156999999990 45.372433499999943 31.205529999999953 47.516934900000024 33.484200999999985 47.090758800000003 C36.069669999999974 46.666835999999989 37.168030000000044 43.675984200000016 36.790452999999957 41.344526999999971 C36.431860000000029 38.755511999999953 35.479330000000004 36.298122000000035 34.566963999999984 33.863801999999964 C35.946460000000002 31.408463999999981 37.817112999999949 29.247839999999997 39.958687000000054 27.426968999999985 C43.050984999999969 27.832136999999989 46.315819000000033 28.428950999999984 49.354057000000012 27.438069000000041 C51.371985999999993 26.797973999999954 52.813024000000041 24.380054999999970 51.746364999999969 22.384029000000055 C50.478720999999950 19.911887999999976 47.188944999999990 19.819416000000047 44.915599000000043 20.773514999999975 C42.806947000000036 21.556149000000005 40.889235999999983 22.775337000000036 39.101608000000056 24.125471999999945 C35.645100999999954 23.478389999999990 32.232463000000052 22.585095000000024 28.912869999999998 21.423050999999987 C27.365226699999994 18.652163999999971 26.038879599999973 15.632888999999977 23.686980400000039 13.433240999999953 C22.167295899999999 11.954756999999972 19.355805700000019 11.571158999999966 17.943223900000021 13.394121000000041 C16.314326800000003 15.372339000000011 17.321028100000035 18.232400999999982 19.078331499999990 19.756988999999976 zM24.321377500000001 19.516497000000001 C22.793423200000007 18.638952000000018 20.977207600000042 17.779097999999976 20.221353099999988 16.090713000000051 C20.853173500000025 14.071823999999992 23.059433200000058 17.257082999999966 23.631895900000018 18.283430999999950 C23.877622900000006 18.685281000000032 24.108345099999951 19.096376999999961 24.321377500000040 19.516496999999958 zM43.736826999999998 24.768291000000001 C45.170344000000000 23.838954000000058 46.979224000000045 22.970187000000010 48.706773999999996 23.493398999999954 C49.237615000000005 25.062368999999990 46.223580999999967 24.843074999999999 45.062202999999954 24.846927000000051 C44.619844000000057 24.831926999999951 44.177863000000002 24.804356999999982 43.736826999999948 24.768290999999977 zM30.850041999999998 25.328019000000001 C32.593552000000045 25.876172999999994 34.377115000000003 26.283900000000017 36.154306000000020 26.705468999999994 C35.032174000000055 27.577187999999978 33.749331999999981 29.922164999999950 32.993607999999995 30.046902000000046 C32.318707000000018 28.456367999999998 31.581381999999962 26.893101000000001 30.850042000000030 25.328019000000040 zM32.223115000000000 42.745073099999999 C32.001025000000027 41.399490000000014 32.317795000000046 38.851277999999979 32.881105000000048 38.316149999999993 C33.371535999999992 39.982641000000058 34.349506000000019 42.182631600000036 33.163795000000050 43.725376500000039 C32.577025000000049 43.997494500000016 32.304556000000048 43.167845400000033 32.223115000000007 42.745073100000013 z" />
<glyph unicode="3" horiz-adv-x="68" d="M34.000000000000000 23.908473000000001 L18.084745600000019 23.908472999999958 L18.084745600000019 36.640676999999982 L34.000000000000000 36.640676999999982 L34.000000000000000 23.908472999999958 zM49.915255000000002 14.359323000000000 L18.084745600000019 14.359323000000018 L18.084745600000019 17.542371000000003 L49.915255000000002 17.542371000000003 L49.915255000000002 14.359323000000018 zM49.915255000000002 23.908473000000001 L40.366101999999955 23.908472999999958 L40.366101999999955 27.091527000000042 L49.915255000000002 27.091527000000042 L49.915255000000002 23.908472999999958 zM49.915255000000002 33.457628999999997 L40.366101999999955 33.457628999999997 L40.366101999999955 36.640676999999982 L49.915255000000002 36.640676999999982 L49.915255000000002 33.457628999999997 zM10.000000000000000 66.000000000000000 L10.000000000000000 6.000000000000000 L58.000000000000000 6.000000000000000 L58.000000000000000 51.000000000000000 L43.000000000000000 51.000000000000000 L43.000000000000000 66.000000000000000 L10.000000000000000 66.000000000000000 zM64.000000000000000 54.000000000000000 L64.000000000000000 0.000000000000000 L4.000000000000000 0.000000000000000 L4.000000000000000 72.000000000000000 L46.000000000000000 72.000000000000000 L64.000000000000000 54.000000000000000 z" />
<glyph unicode="4" horiz-adv-x="68" d="M52.473229000000003 45.151467599999997 L52.473228999999947 12.432971999999950 L15.080663500000014 12.432971999999950 L15.080663500000014 45.151467600000046 L52.473228999999947 45.151467600000046 zM29.102875000000001 24.120141000000000 L38.451018999999974 24.116240999999945 L38.451018999999974 31.129253999999946 L29.102875000000040 31.129253999999946 L29.102875000000040 24.120056999999974 L29.102875000000040 24.120140999999990 zM29.102875000000001 21.781196999999999 L29.102875000000040 14.768184000000019 L38.451018999999974 14.768184000000019 L38.451018999999974 21.781197000000020 L29.102875000000040 21.781197000000020 zM29.102875000000001 40.481295000000003 L29.102875000000040 33.468282000000045 L38.451018999999974 33.468282000000045 L38.451018999999974 40.481295000000046 L29.102875000000040 40.481295000000046 zM17.419606600000002 40.481295000000003 L17.419606599999952 33.468282000000045 L26.767748200000028 33.468282000000045 L26.767748200000028 40.481295000000046 L17.419606599999952 40.481295000000046 zM17.415791200000001 24.116325000000000 L26.763932800000021 24.116324999999961 L26.763932800000021 31.129337999999962 L17.415791199999944 31.129337999999962 L17.415791199999944 24.116324999999961 zM40.789960000000001 24.116325000000000 L50.138101000000006 24.116324999999961 L50.138101000000006 31.129337999999962 L40.789959999999951 31.129337999999962 L40.789959999999951 24.116324999999961 zM50.138100999999999 33.468282000000002 L50.138101000000006 40.481295000000046 L40.789959999999951 40.481295000000046 L40.789959999999951 33.468282000000045 L50.138101000000006 33.468282000000045 zM17.415791200000001 14.768184000000000 L26.763932800000021 14.768184000000019 L26.763932800000021 21.781197000000020 L17.415791199999944 21.781197000000020 L17.415791199999944 14.768184000000019 zM40.789960000000001 14.772084000000000 L40.789959999999951 14.768184000000019 L50.138101000000006 14.768184000000019 L50.138101000000006 21.781197000000020 L40.789959999999951 21.781197000000020 L40.789959999999951 14.772000000000048 L40.789959999999951 14.772083999999950 zM10.000000000000000 66.000000000000000 L10.000000000000000 6.000000000000000 L58.000000000000000 6.000000000000000 L58.000000000000000 51.000000000000000 L43.000000000000000 51.000000000000000 L43.000000000000000 66.000000000000000 L10.000000000000000 66.000000000000000 zM64.000000000000000 54.000000000000000 L64.000000000000000 0.000000000000000 L4.000000000000000 0.000000000000000 L4.000000000000000 72.000000000000000 L46.000000000000000 72.000000000000000 L64.000000000000000 54.000000000000000 z" />
<glyph unicode="5" horiz-adv-x="74" d="M70.000000000000000 72.000000000000000 C70.000000000000000 69.056850690000033 70.000000000000000 66.113701500000047 70.000000000000000 63.170553000000041 C69.347805999999991 62.765897999999993 67.938456999999971 63.118394999999964 67.000000000000000 63.000000000000000 C67.000000000000000 48.000000000000000 67.000000000000000 33.000000000000000 67.000000000000000 18.000000000000000 C46.999999000000003 18.000000000000000 27.000000099999966 18.000000000000000 7.000000000000000 18.000000000000000 C7.000000000000000 32.943150000000060 7.000000000000000 47.886298499999953 7.000000000000000 62.829447899999991 C6.347804500000052 63.234103200000050 4.938456699999961 62.881606199999965 4.000000000000000 63.000000000000000 C4.000000000000000 66.000000000000000 4.000000000000000 69.000000000000000 4.000000000000000 72.000000000000000 C25.999999900000034 72.000000000000000 48.000000999999997 72.000000000000000 70.000000000000000 72.000000000000000 zM13.000000000000000 24.000000000000000 C28.999999900000034 24.000000000000000 45.000000999999997 24.000000000000000 61.000000000000000 24.000000000000000 C61.000000000000000 36.999999000000003 61.000000000000000 50.000000099999966 61.000000000000000 63.000000000000000 C45.000000999999997 63.000000000000000 28.999999900000034 63.000000000000000 13.000000000000000 63.000000000000000 C13.000000000000000 50.000000099999966 13.000000000000000 36.999999000000003 13.000000000000000 24.000000000000000 zM50.463999999999999 12.000000000000000 C53.878000000000043 8.000000999999997 57.292000000000030 3.999999000000003 60.706000000000017 0.000000000000000 C58.078998999999953 0.000000000000000 55.452000999999996 0.000000000000000 52.825000000000045 0.000000000000000 C49.404999999999973 3.999999000000003 45.985000000000014 8.000000999999997 42.565000000000055 12.000000000000000 C45.198000999999977 12.000000000000000 47.830999000000020 12.000000000000000 50.463999999999942 12.000000000000000 zM55.000000000000000 51.000000000000000 C51.000000999999997 51.000000000000000 46.999999000000003 51.000000000000000 43.000000000000000 51.000000000000000 C43.000000000000000 51.999999900000034 43.000000000000000 53.000000099999966 43.000000000000000 54.000000000000000 C46.999999000000003 54.000000000000000 51.000000999999997 54.000000000000000 55.000000000000000 54.000000000000000 C55.000000000000000 53.000000099999966 55.000000000000000 51.999999900000034 55.000000000000000 51.000000000000000 zM34.000000000000000 12.000000000000000 C36.000000999999997 12.000000000000000 37.999999000000003 12.000000000000000 40.000000000000000 12.000000000000000 C40.000000000000000 8.000000999999997 40.000000000000000 3.999999000000003 40.000000000000000 0.000000000000000 C37.999999000000003 0.000000000000000 36.000000999999997 0.000000000000000 34.000000000000000 0.000000000000000 C34.000000000000000 3.999999000000003 34.000000000000000 8.000000999999997 34.000000000000000 12.000000000000000 zM23.491000000000000 12.000000000000000 C26.124000099999989 12.000000000000000 28.756999899999983 12.000000000000000 31.389999999999986 12.000000000000000 C27.970000000000027 8.000000999999997 24.549999999999955 3.999999000000003 21.129999999999995 0.000000000000000 C18.501999999999953 0.000000000000000 15.874000000000024 0.000000000000000 13.245999999999981 0.000000000000000 C16.660999899999979 3.999999000000003 20.076000099999987 8.000000999999997 23.490999999999985 12.000000000000000 zM55.000000000000000 45.000000000000000 C51.000000999999997 45.000000000000000 46.999999000000003 45.000000000000000 43.000000000000000 45.000000000000000 C43.000000000000000 45.999999900000034 43.000000000000000 47.000000099999966 43.000000000000000 48.000000000000000 C46.999999000000003 48.000000000000000 51.000000999999997 48.000000000000000 55.000000000000000 48.000000000000000 C55.000000000000000 47.000000099999966 55.000000000000000 45.999999900000034 55.000000000000000 45.000000000000000 zM55.000000000000000 39.000000000000000 C51.000000999999997 39.000000000000000 46.999999000000003 39.000000000000000 43.000000000000000 39.000000000000000 C43.000000000000000 39.999999000000003 43.000000000000000 41.000000999999997 43.000000000000000 42.000000000000000 C46.999999000000003 42.000000000000000 51.000000999999997 42.000000000000000 55.000000000000000 42.000000000000000 C55.000000000000000 41.000000999999997 55.000000000000000 39.999999000000003 55.000000000000000 39.000000000000000 zM26.625492399999999 33.398322000000000 C21.958258600000022 34.639409999999998 18.593493999999964 39.422108999999978 19.025542900000005 44.236763699999983 C19.271101599999952 49.032001499999978 23.249532100000010 53.249236799999949 28.000000000000000 53.850000000000023 C28.000000000000000 49.899999900000012 28.000000000000000 45.950000100000011 28.000000000000000 42.000000000000000 C31.533226000000013 42.000000000000000 35.066452000000027 42.000000000000000 38.599681000000032 42.000000000000000 C39.370815999999991 42.038480700000036 40.278943000000027 42.155801999999994 39.670713999999975 41.061437999999953 C38.656048000000055 36.459437999999977 34.225045000000023 32.908500000000004 29.500000000000000 33.000000000000000 C28.529592999999977 32.999667000399882 27.559005699999943 33.132876000000010 26.625492399999985 33.398322000000007 zM39.850000000000001 45.000000000000000 C36.900000999999975 45.000000000000000 33.949999000000048 45.000000000000000 31.000000000000000 45.000000000000000 C31.000000000000000 47.949999899999966 31.000000000000000 50.900000099999943 31.000000000000000 53.850000000000023 C35.505040000000008 53.255531099999985 39.256027000000017 49.502686199999971 39.850000000000023 45.000000000000000 zM55.000000000000000 33.000000000000000 C51.000000999999997 33.000000000000000 46.999999000000003 33.000000000000000 43.000000000000000 33.000000000000000 C43.000000000000000 33.999999000000003 43.000000000000000 35.000000999999997 43.000000000000000 36.000000000000000 C46.999999000000003 36.000000000000000 51.000000999999997 36.000000000000000 55.000000000000000 36.000000000000000 C55.000000000000000 35.000000999999997 55.000000000000000 33.999999000000003 55.000000000000000 33.000000000000000 z" />
<glyph unicode="A" horiz-adv-x="80" d="M75.747239513200000 61.527218334200001 C75.747209618500051 61.527188442000011 75.747239513200043 25.653605169399953 75.747239513200043 7.716798586999971 C75.747209618500051 7.716768694500047 27.915755293400025 7.716798586999971 4.000013183600004 7.716798586999971 C3.999983288900012 7.716768735599999 4.000013183600004 43.590411751800048 4.000013183600004 61.527218334200029 C3.999983288900012 61.527188398899966 51.831497403299977 61.527218334200029 75.747239513200043 61.527218334200029 zM11.960965838400000 13.695734114400000 C11.960935943699951 13.695704402200022 49.387109261799992 13.695734114400011 68.100180973600004 13.695734114400011 C68.100151078900012 13.695704226499970 56.915585580200059 27.281868611299956 51.323287883500029 34.074935859800007 C51.323257988800037 34.074905958899990 43.690180193400010 27.888730567399989 39.873626348399966 24.795627921199980 C39.873596453699975 24.795597985900031 32.252476529400042 30.971868320999988 28.441901619799978 34.059988521000037 C28.441871725200031 34.059958665200043 17.454611098900045 20.483818916600057 11.960965838399943 13.695734114400011 zM69.768303985700001 21.076730023100001 C69.768274090999967 21.076700128400034 69.768303985699959 39.707093126699988 69.768303985699959 49.022274678500025 C69.768274090999967 49.022244783800033 60.568715187400016 41.566542075699999 55.968920788300011 37.838675774299986 C55.968890893600019 37.838645880099989 65.168509586599953 26.664045273500051 69.768303985699959 21.076730023100026 zM39.873626348400002 32.490517945000001 C39.873596453699975 32.490488009799947 58.840802820000022 47.862361186099974 68.324391055799993 55.548282806699945 C68.324361161200045 55.548252907000006 30.388045133999981 55.548282806699945 11.419872173099975 55.548282806699945 C11.419842278500028 55.548252882200018 30.389041623300045 40.176439565600049 39.873626348399966 32.490517944999965 zM9.978948711000001 49.022274678499997 C9.978918816300052 49.022244788600005 9.978948711000044 30.172683938900036 9.978948711000044 20.747888569100041 C9.978918816300052 20.747858679200021 19.192488358900050 32.131781813400039 23.799258182800031 37.823728435500016 C23.799228288100039 37.823698473000036 14.585718534900025 45.289425930800007 9.978948711000044 49.022274678500025 z" />
<glyph unicode="B" horiz-adv-x="80" d="M45.042501999999999 17.399501999999998 C45.042502000000013 20.182961999999975 42.783459999999991 22.442003999999997 40.000000000000000 22.442003999999997 C37.216540000000009 22.442003999999997 34.957497999999987 20.182961999999975 34.957497999999987 17.399501999999984 C34.957497999999987 14.616041999999993 37.216540000000009 12.356999999999971 40.000000000000000 12.356999999999971 C42.783459999999991 12.356999999999971 45.042502000000013 14.616041999999993 45.042502000000013 17.399501999999984 zM37.344541000000000 26.603999999999999 L42.655458999999951 26.604000000000042 L45.974784999999997 59.797241999999983 L34.025215000000003 59.797241999999983 L37.344541000000049 26.604000000000042 zM76.000000000000000 36.000000000000000 C76.000000000000000 16.119000000000028 59.880999999999972 0.000000000000000 40.000000000000000 0.000000000000000 C20.119000000000028 0.000000000000000 4.000000000000000 16.119000000000028 4.000000000000000 36.000000000000000 C4.000000000000000 55.880999999999972 20.119000000000028 72.000000000000000 40.000000000000000 72.000000000000000 C59.880999999999972 72.000000000000000 76.000000000000000 55.880999999999972 76.000000000000000 36.000000000000000 z" />
<glyph unicode="C" horiz-adv-x="80" d="M39.563623608400000 72.000000000000000 C49.944741982600021 72.327369907700017 60.184562406500049 67.665539206099993 66.977184211600047 59.851161918699972 C78.314554399000031 47.756742515700012 79.094039797299956 27.451069135399962 68.771169581300001 14.495695943600026 C62.446579239399966 6.097808419600028 52.473096249800051 0.428910490000021 41.886609298700023 0.063624740199998 C31.489032924599996 -0.638814088199979 21.006767453099997 3.614887559200042 13.933566992800024 11.247423705499955 C6.881081170800030 18.278456067299999 3.413895882699990 28.408957124099970 4.075035036899976 38.287372922099962 C4.589592350299995 55.056747720200065 18.845520559799979 70.039820052499977 35.468865722899977 71.747093836700003 C36.828054100399982 71.903729190600018 38.195601761500029 71.985633581599984 39.563623608400007 72.000000000000000 zM34.242727907300001 13.626644221099999 C40.001367437800013 14.269008572100006 45.075198301699970 17.779614270500019 49.109936483700039 21.764484704999973 C48.082461351600045 24.389396797099948 46.542471285599959 22.983703008599946 44.774482403799993 21.716801654700021 C41.581574867900031 19.118584809300046 40.779022604399984 22.540058462399998 42.064799053399952 24.980729845899987 C43.259183641299956 29.858750965500008 44.807524383600025 34.662026020400049 45.696336191300020 39.605134996700031 C46.957336046000023 44.406584514799988 41.389639987699979 44.473293679600033 38.521929947400054 42.554113111499987 C34.480569597699969 40.847932693100006 30.739383666600020 38.477013557299983 27.356862882499968 35.692711687099973 C28.171833177599979 32.917678347699962 29.852652485599947 34.264742907800041 31.719828340599975 35.476928239300037 C34.000307899200038 37.335255757800041 35.836546658199950 35.687903318799954 34.305361892099995 33.261941082000021 C33.219250489299952 28.239373918200044 31.703493190800032 23.293109181199952 30.985646456899985 18.204190448100007 C30.696323535599959 16.069868069499989 31.658371995299945 13.413636246399960 34.242727907300036 13.626644221100037 zM43.710792316499997 60.106233138900002 C39.325961107000012 60.645884640799977 35.132810470100026 55.603390722600011 37.426477242700003 51.557595249799988 C40.476027328600026 47.654952998499994 48.114265440599979 49.866145887699986 48.377578571700042 54.954069300399965 C48.920078317799948 57.847752354099953 46.694238098200003 60.454107039900009 43.710792316500033 60.106233138900052 z" />
<glyph unicode="D" horiz-adv-x="74" d="M66.397001764599992 53.997003325999998 C66.396971764600039 53.996973324999999 63.063002377199950 57.317002716000047 61.396002683500001 58.977002410900013 C61.395972683499963 58.976972411500014 44.836005726400003 42.703005401299947 36.556007247800039 34.566006896499971 C36.555977247800001 34.565976903400042 30.574008347000017 40.552005796499998 27.583008896599949 43.545005246599999 C27.582978896600025 43.544975255700024 14.729011258500009 30.765007594899998 8.302012439500004 24.375008769099964 C8.301982439499966 24.374978775899990 5.482012957700022 27.211008247900054 4.072013216799974 28.629007987399973 C4.071983216800049 28.628977976699957 19.754010335199951 44.223005122000018 27.595008894400053 52.020003689299983 C27.594978894400015 52.019973705799998 33.597007791600049 46.016004792499984 36.598007240099946 43.014005344100042 C36.597977240100022 43.013975337000034 50.298004722699943 56.480002869800046 57.148003464100043 63.213001632600026 C57.147973464100005 63.212971628400055 53.716004094699997 66.629001004900033 52.000004409999974 68.337000690999957 C51.999974410000050 68.336970692899968 64.000002204999987 70.779000242300015 70.000001102500050 72.000000017999980 C69.999971102500012 71.999970018300019 67.598001543899954 59.998002223299977 66.397001764599963 53.997003326000026 zM70.000001102499994 0.000013248000000 C69.999971102500012 -0.000016751699945 58.000003307500037 0.000013247999959 52.000004409999974 0.000013247999959 C51.999974410000050 -0.000016750100031 52.000004409999974 26.000008470500006 52.000004409999974 39.000006081700008 C51.999974410000050 38.999976083600018 64.000002204999987 39.000006081700008 70.000001102500050 39.000006081700008 C69.999971102500012 38.999976082100034 70.000001102500050 13.000010859199961 70.000001102500050 0.000013247999959 zM46.000005512499996 0.000013248000000 C45.999975512499987 -0.000016753299974 34.000007717500011 0.000013247999959 28.000008819999948 0.000013247999959 C27.999978820000024 -0.000016758699985 28.000008819999948 18.000009940500036 28.000008819999948 27.000008286699995 C27.999978820000024 26.999978280099981 40.000006614999961 27.000008286699995 46.000005512500024 27.000008286699995 C45.999975512499987 26.999978285399948 46.000005512500024 9.000011594200032 46.000005512500024 0.000013247999959 zM22.000009922499999 0.000013248000000 C16.000011025000049 0.000013247999959 3.999983229999998 -0.000016792800011 4.000013230000036 0.000013247999959 C4.000013230000036 6.000012145500023 3.999983229999998 17.999979899699952 4.000013230000036 18.000009940500036 C10.000012127499986 18.000009940500036 21.999979922499961 17.999979918899953 22.000009922499999 18.000009940500036 C22.000009922499999 12.000011042999972 21.999979922499961 -0.000016773600009 22.000009922499999 0.000013247999959 z" />
<glyph unicode="E" horiz-adv-x="53.034540859309232" d="M26.500000000000000 72.000000000000000 C32.739969999999971 72.000000000000000 38.049970000000030 69.810029999999983 42.429999999999950 65.430000000000064 C46.810029999999983 61.049970000000030 49.000000000000000 55.739969999999971 49.000000000000000 49.500000000000000 C49.000000000000000 43.139969999999948 47.139969999999948 35.849969999999985 43.419999999999959 27.629999999999995 C39.700029999999970 19.410030000000006 35.920029999999997 12.719969999999989 32.080000000000041 7.559999999999945 C32.080000000000041 7.559999999999945 26.500000000000000 0.000000000000000 26.500000000000000 0.000000000000000 C25.899970000000053 0.720000000000027 25.089969999999994 1.770030000000020 24.070000000000050 3.149999999999977 C23.050029999999992 4.529970000000048 21.250030000000038 7.200000000000045 18.669999999999959 11.159999999999968 C16.089969999999994 15.120000000000005 13.809999999999945 19.019970000000058 11.830000000000041 22.860000000000014 C9.850000000000023 26.700029999999970 8.049999999999955 31.110030000000052 6.429999999999950 36.090000000000032 C4.809999999999945 41.069970000000012 4.000000000000000 45.539999999999964 4.000000000000000 49.500000000000000 C4.000000000000000 55.739969999999971 6.189970000000017 61.049970000000030 10.570000000000050 65.430000000000064 C14.950029999999970 69.810029999999983 20.260030000000029 72.000000000000000 26.500000000000000 72.000000000000000 C26.500000000000000 37.080000000000041 26.499999099999968 37.080000000000041 26.500000000000000 37.080000000000041 C29.859969999999976 37.080000000000041 32.739969999999971 38.279970000000048 35.139999999999986 40.679999999999950 C37.540030000000002 43.080029999999965 38.740000000000009 45.960029999999961 38.740000000000009 49.320000000000050 C38.740000000000009 52.679970000000026 37.540030000000002 55.529999999999973 35.139999999999986 57.870000000000005 C32.739969999999971 60.210000000000036 29.859969999999976 61.379999999999995 26.500000000000000 61.379999999999995 C23.140030000000024 61.379999999999995 20.289999999999964 60.210000000000036 17.950000000000045 57.870000000000005 C15.610000000000014 55.529999999999973 14.440000000000055 52.679970000000026 14.440000000000055 49.320000000000050 C14.440000000000055 45.960029999999961 15.610000000000014 43.080029999999965 17.950000000000045 40.679999999999950 C20.289999999999964 38.279970000000048 23.140030000000024 37.080000000000041 26.500000000000000 37.080000000000041 C26.500000000000000 72.000000000000000 26.500000000000000 60.360000000000014 26.500000000000000 72.000000000000000 z" />
<glyph unicode="F" horiz-adv-x="80" d="M46.000005512499996 12.000011015500000 C40.000006614999961 12.000011015500036 27.999978820000024 11.999981000799949 28.000008819999948 12.000011015500036 C28.000008819999948 13.000010831700024 27.999978820000024 14.999980449600002 28.000008819999948 15.000010464200045 C34.000007717500011 15.000010464200045 45.999975512499987 14.999980466100055 46.000005512500024 15.000010464200045 C46.000005512500024 14.000010647999943 45.999975512499987 11.999981017400046 46.000005512500024 12.000011015500036 zM76.000000000000000 57.000002746699998 C76.000000000000000 44.000005135500032 75.999969999999962 17.999979912599997 76.000000000000000 18.000009912999985 C72.000000734999958 18.000009912999985 63.999972204999949 17.999979912900017 64.000002204999987 18.000009912999985 C64.000002204999987 12.000011015500036 63.999972204999949 -0.000016779599946 64.000002204999987 0.000013220500023 C48.000005145000046 0.000013220500023 15.999981025000011 -0.000016757899971 16.000011025000049 0.000013220500023 C16.000011025000049 6.000012117999972 15.999981025000011 17.999979934599992 16.000011025000049 18.000009912999985 C12.000011760000007 18.000009912999985 3.999983229999998 17.999979888799999 4.000013230000036 18.000009912999985 C4.000013230000036 31.000007524199987 3.999983229999998 56.999972722500047 4.000013230000036 57.000002746700034 C8.000012494999964 57.000002746700034 15.999981025000011 56.999972768300040 16.000011025000049 57.000002746700034 C16.000011025000049 62.000001827999995 15.999981025000011 71.999970012099993 16.000011025000049 71.999999990499987 C32.000008084999990 71.999999990499987 63.999972204999949 71.999969990400018 64.000002204999987 71.999999990499987 C64.000002204999987 67.000000909200025 63.999972204999949 56.999972746599951 64.000002204999987 57.000002746700034 C68.000001470000029 57.000002746700034 75.999969999999962 56.999972746300045 76.000000000000000 57.000002746700034 zM58.000003307499995 27.000008259200001 C46.000005512500024 27.000008259200058 21.999979922499961 26.999978252600044 22.000009922499999 27.000008259200058 C22.000009922499999 20.000009545500006 21.999979922499961 5.999982111300028 22.000009922499999 6.000012117999972 C34.000007717500011 6.000012117999972 57.999973307499999 5.999982117799959 58.000003307500037 6.000012117999972 C58.000003307500037 13.000010831700024 57.999973307499999 26.999978259000045 58.000003307500037 27.000008259200058 zM58.000003307499995 66.000001092999995 C46.000005512500024 66.000001093000037 21.999979922499961 65.999971086299979 22.000009922499999 66.000001093000037 C22.000009922499999 63.000001644199983 21.999979922499961 56.999972740100020 22.000009922499999 57.000002746700034 C34.000007717500011 57.000002746700034 57.999973307499999 56.999972746500021 58.000003307500037 57.000002746700034 C58.000003307500037 60.000002195499974 57.999973307499999 65.999971092800024 58.000003307500037 66.000001093000037 zM68.500001378099995 51.000003849199999 C69.328001225999969 51.000003849199970 70.000001102500050 50.328003972700003 70.000001102500050 49.500004124799943 C69.999971102500012 49.499974124800019 70.000001102500050 49.500004124799943 68.500001378100023 51.000003849199970 zM52.000017639999996 19.162617706100001 C51.999987639999972 19.162587703800000 36.000020579999955 19.162617706100036 28.000022049999984 19.162617706100036 C27.999992049999946 19.162587691499994 28.000022049999984 21.162617338600057 28.000022049999984 22.162617154800046 C27.999992049999946 22.162587140200003 44.000019110000039 22.162617154800046 52.000017640000010 22.162617154800046 C51.999987639999972 22.162587152500009 52.000017640000010 20.162617522300025 52.000017640000010 19.162617706100036 z" />
<glyph unicode="G" horiz-adv-x="80" d="M66.138924651099998 0.000000000000000 C59.738162940799953 6.400761710300003 53.337401230499950 12.801523420600006 46.936639520199947 19.202285130900009 C42.364625267599990 16.459882979199961 37.005194233100042 15.060274770499973 31.676261387099999 15.209611866700016 C18.812968514400040 15.310766118200149 6.948523783500036 25.279331019699953 4.562172588400017 37.906592802100022 C1.848941668099997 50.072254887199961 8.316074773900027 63.433892692900031 19.478856987900031 68.938866901199958 C30.511169942099968 74.819682698799966 45.199748397100052 72.126198848900003 53.442386331900025 62.730571171799966 C61.986457511599951 53.664722927200046 63.256189101399968 38.846952362500019 56.429701681499978 28.443159682600026 C62.787432379799952 22.084429240600002 69.145160075899980 15.725698798599979 75.502890774199955 9.366968356500024 C72.381567732399958 6.244645570999978 69.260247692899952 3.122322785500046 66.138924651099956 0.000000000000000 zM15.814611850799999 37.096758342999998 C18.859288172900051 28.913879864899968 28.437486469499959 23.994282034900039 36.857058030299982 26.360468308699978 C45.495783626200023 28.403905480299954 51.582986070700031 37.584113900700004 50.033218153899952 46.339581644400027 C48.851596111399999 55.291844289499977 40.029449063000015 62.307260759100018 31.036270479499990 61.403614010299975 C22.027928515400049 60.910139900800004 14.369515902499984 52.652267732700011 14.575565188500036 43.628456460599978 C14.573741331700035 41.399078962700059 14.993719865699973 39.169863585399980 15.814611850800020 37.096758343000033 z" />
<glyph unicode="H" horiz-adv-x="80" d="M8.314000000000000 21.375000000000000 C14.001999999999953 15.686001000000033 19.690000000000055 9.996998999999960 25.378000000000043 4.307999999999993 C18.252000100000032 2.871998999999960 11.125999900000011 1.436001000000033 4.000000000000000 0.000000000000000 C5.437999989999980 7.125000000000000 6.876000009999984 14.250000000000000 8.313999999999965 21.375000000000000 zM61.483000000000004 60.984000000000002 C60.585940000000051 61.683941399999981 59.689117000000010 63.169298099999992 58.791913000000022 63.387085800000023 C46.225942000000032 50.836057200000027 33.659971300000052 38.285028000000011 21.094000000000051 25.734000000000037 C21.992025099999978 25.033730999999989 22.890063100000020 23.549286000000052 23.788079799999991 23.330918999999994 C36.353053000000045 35.881946999999968 48.918028000000049 48.432973199999992 61.482999999999947 60.984000000000037 zM76.000000000000000 54.933000000000000 C60.540000999999961 39.473000999999954 45.079999000000043 24.012999000000036 29.620000000000005 8.552999999999997 C23.932000000000016 14.241998999999964 18.244000000000028 19.931001000000037 12.556000000000040 25.620000000000005 C28.014999999999986 41.079999000000043 43.474000000000046 56.540000100000043 58.932999999999993 72.000000000000000 C64.621998999999960 66.311000100000001 70.311001000000033 60.621999899999992 76.000000000000000 54.932999999999993 z" />
<glyph unicode="I" horiz-adv-x="80" d="M28.106658551599999 51.321707099400001 C24.010362053399945 51.153193532599971 21.244492173300046 56.639900936800018 24.129841213999953 59.702869343999964 C26.155952374699950 62.387283669300018 29.666787975899979 61.489675256400005 32.548708015600027 61.646913697599985 C45.570467251900027 61.630851806300370 58.593627618800042 61.679084976399849 71.614509212500025 61.622713478399987 C75.786468824700023 61.464275248200011 77.832608821199983 55.600756656899989 74.673340309499963 52.870488089199966 C72.455577826600006 50.554481265400000 69.100749901999961 51.532736769500048 66.262104868200026 51.321707099399987 C53.543622762700011 51.321707099399987 40.825140657099951 51.321707099399987 28.106658551600049 51.321707099399987 zM71.059518000200001 40.996500501200003 C75.240930338999988 41.298559257700049 77.893958101200042 35.660856032199945 75.036335337700052 32.615338256600012 C73.010224177099985 29.930923931400002 69.499388575899957 30.828532344199971 66.617468536200022 30.671293902999992 C53.611328239899990 30.687371282199706 40.603655682900012 30.639101973899756 27.598474598299958 30.695494122199989 C23.728797799499944 30.951414692999947 21.400620654800036 36.140832553600035 24.129841213999953 39.052456147599969 C26.155952374699950 41.736870472900023 29.666787975899979 40.839262060000010 32.548708015600027 40.996500501199989 C45.385645021299979 40.996500501199989 58.222580994500049 40.996500501199989 71.059518000200001 40.996500501199989 zM71.059518000200001 20.346087304800001 C75.240930338999988 20.648146061200009 77.893958101200042 15.010442835799950 75.036335337700052 11.964925060200017 C73.010224177099985 9.280510735000007 69.499388575899957 10.178119147799976 66.617468536200022 10.020880706599996 C53.611328239899990 10.036958085799711 40.603655682900012 9.988688777499760 27.598474598299958 10.045080925799994 C23.728797799499944 10.301001496599952 21.400620654800036 15.490419357200039 24.129841213999953 18.402042951199974 C26.155952374699950 21.086457276500028 29.666787975899979 20.188848863600015 32.548708015600027 20.346087304799994 C45.385645021299979 20.346087304799994 58.222580994500049 20.346087304799994 71.059518000200001 20.346087304799994 zM14.298675101099999 56.505153893100001 C14.493690375699998 52.506147686499958 9.388968532800050 49.814701895600024 6.199303748700004 52.232804362200000 C2.786834945199985 54.330077879300006 3.448840759799964 60.062304240999993 7.246430549000024 61.329854481100028 C10.515983831299991 62.698450290499977 14.390710895199959 60.058333166600050 14.298675101100002 56.505153893099987 zM14.298675101099999 35.854740696699999 C14.493690375699998 31.855734490099962 9.388968532800050 29.164288699200029 6.199303748700004 31.582391165800004 C2.786834945199985 33.679664682799967 3.448840759799964 39.411891044599997 7.246430549000024 40.679441284700033 C10.515983831299991 42.048037094000051 14.390710895199959 39.407919970100011 14.298675101100002 35.854740696699992 zM14.298675101099999 15.204330597800000 C14.493690375699998 11.205324391299996 9.388968532800050 8.513878600300018 6.199303748700004 10.931981066899993 C2.786834945199985 13.029254584000000 3.448840759799964 18.761480945699986 7.246430549000024 20.029031185800022 C10.515983831299991 21.397626995199971 14.390710895199959 18.757510903800039 14.298675101100002 15.204330597799981 z" />
<glyph unicode="J" horiz-adv-x="44" d="M39.666681898600004 20.121636016000000 C42.059936415099969 13.901783485000010 38.622038428399946 6.876107532100036 33.353689599299969 3.331612024399988 C26.914607701899968 -1.408903998300048 16.974463181700003 -1.253950551100047 11.310717836999970 4.656951623700024 C8.301329577099978 7.803652432500030 7.957379563699988 12.318724828700056 6.669378426199955 16.278809238800022 C4.591824014700023 23.980532492700036 2.328940414799945 31.637753323799984 0.377165449699987 39.369688505300019 C-0.652926813000022 45.288199082199981 2.366627808100020 51.494807624200007 7.278251763200046 54.813243405400044 C4.975074509099954 59.275649335200001 2.671897254999976 63.738055264999957 0.368720001000042 68.200461194699983 C-1.590942540199990 71.337948092500028 4.175757274899979 73.901449491400001 5.056710123099947 70.205626169400034 C7.332675841700052 65.746591947200045 9.608641056500005 61.287557437099963 11.884606271299958 56.828523502700023 C19.483271699799957 59.168789108000055 28.382226795900010 54.382177151799965 30.525190721700028 46.702278661700007 C33.572354687300049 37.842064446399945 36.619517933100042 28.981850231200042 39.666681898600018 20.121636016000025 zM16.347012201100000 39.842591253999998 C20.259170371600021 40.996789668699989 20.952133789700042 46.979725871399978 17.427757254999960 49.020431606100033 C14.596660825400022 51.086752990300056 10.204393120700047 49.098382640299974 9.855837472499957 45.616295318999960 C9.089422852799999 42.007008556200049 12.853224739400048 38.662906743399958 16.347012201100029 39.842591254000013 z" />
<glyph unicode="K" horiz-adv-x="84" d="M16.541872752000000 26.323956644700001 C25.027552534099982 22.055710398900032 33.513233078400049 17.787464153199949 41.998912860500013 13.519217907400048 C49.011031692799975 16.974464614199974 56.023150525100050 20.429712083200002 63.035269357400011 23.884958789899997 C62.186290026899997 20.518214169100020 62.768017691799969 16.157887370300045 59.300553892399989 14.128967371099975 C55.668300727199949 12.219613144299956 51.822267113499947 10.701567922300001 48.329812732299956 8.507846362500004 C45.428636216900031 6.711082374200032 41.629144017599970 4.648033935299964 38.473799535800026 7.149010536499986 C34.439469190299974 9.547043897799995 30.370941808199973 11.888420101200040 26.026634652199959 13.685041560599984 C22.018302499399965 15.522670958099980 18.598903725800028 18.811095546899992 17.415713854599971 23.154634418600040 C17.064101826400019 24.193261075999999 16.779909796400034 25.253869201500038 16.541872752000017 26.323956644700047 zM78.279005949300000 45.073752652700001 C81.587658976599982 43.762795116800021 79.346537779999949 39.563748575499972 76.652649405800048 39.125888247800049 C75.213082750699982 38.313824674199964 73.773515333499972 37.501761100700037 72.333948678499951 36.689697527199996 C64.508830307200014 39.281132747800029 56.683712698099953 41.872567968399949 48.858594326899947 44.464003189100026 C46.200312272599945 48.002306919000034 41.114292911699977 47.530584917099986 37.362848207999946 46.402524781500006 C33.280361374199970 44.720075098200027 35.000380770699962 39.173152215299979 39.027338482999994 38.964149915999997 C42.025497175000055 38.448336930300002 45.145433505399978 39.223172250299967 48.077111975499975 38.199771037100049 C54.384288019999985 36.730976041499957 60.691464826800029 35.262181808099967 66.998640871300040 33.793387574699977 C59.658007320500019 29.722591162499953 52.466167882500031 25.360567735800032 45.026251875200046 21.483079433799958 C40.588210220700034 19.794225856800040 36.423913301400034 22.718867818099966 32.746716265399982 24.843993325500037 C23.443445530900021 30.126541035900004 14.036780342000043 35.241911449400050 4.811880477399995 40.653309129899981 C2.133886671000027 43.539424071400049 6.718532980499958 45.932088588700026 8.990693473499960 46.910794404099988 C18.996933694099994 52.459319403699965 28.867793527899948 58.275996211600045 38.971573845799981 63.633992796300049 C42.997922570899959 65.184688577600014 46.874562558900038 62.859094214700008 50.239544241600015 60.845949958600045 C59.586031731599974 55.588550602599980 68.932518459399944 50.331152008699974 78.279005949299972 45.073752652700023 zM68.523014530500006 11.385094784600000 C69.453983822599980 18.045438480599955 70.495804042800046 25.084802443299964 68.321743092199995 31.609245941099971 C67.867775470299989 32.726122509400057 66.134558808799966 34.028478767000024 68.178803336400051 34.434047525300002 C69.563851529700059 35.185930351099955 70.948900485200056 35.937813939100010 72.333948678499951 36.689697527199996 C74.116676234199986 33.188233335400014 74.108237301599956 29.089867101199957 74.719348030900051 25.272375859899967 C75.070214640500012 20.493563522599970 74.729954622899982 15.647276309700032 73.791620319499998 10.956379174499943 C73.167958659600004 8.592001696899956 68.810352867699976 9.229042784400008 68.523014530499950 11.385094784600028 z" />
<glyph unicode="L" horiz-adv-x="80" d="M76.000000000000000 36.000000000000000 C76.000000000000000 16.119000000000028 59.880999999999972 0.000000000000000 40.000000000000000 0.000000000000000 C20.119000000000028 0.000000000000000 4.000000000000000 16.119000000000028 4.000000000000000 36.000000000000000 C4.000000000000000 55.880999999999972 20.119000000000028 72.000000000000000 40.000000000000000 72.000000000000000 C59.880999999999972 72.000000000000000 76.000000000000000 55.880999999999972 76.000000000000000 36.000000000000000 zM69.394000000000005 42.000000000000000 L57.835000000000036 42.000000000000000 C58.221999999999980 37.863000000000056 58.197999999999979 33.849000000000046 57.835000000000036 30.000000000000000 L69.394000000000005 30.000000000000000 C69.789999999999964 31.937999999999988 70.000000000000000 33.945000000000050 70.000000000000000 36.000000000000000 C70.000000000000000 38.054999999999950 69.789999999999964 40.062000000000012 69.394000000000005 42.000000000000000 zM51.132999999999996 63.834000000000003 C53.821000000000026 59.253000000000043 55.827999999999975 53.879999999999995 56.976999999999975 48.000000000000000 L67.476999999999975 48.000000000000000 C64.323999999999955 55.187999999999988 58.437999999999988 60.903000000000020 51.133000000000038 63.834000000000060 zM43.000000000000000 64.974000000000004 L43.000000000000000 48.000000000000000 L50.815000000000055 48.000000000000000 C49.350999999999999 54.744000000000028 46.644999999999982 60.594000000000051 43.000000000000000 64.974000000000046 zM29.184999999999999 48.000000000000000 L37.000000000000000 48.000000000000000 L37.000000000000000 64.974000000000046 C33.355000000000018 60.594000000000051 30.649000000000001 54.744000000000028 29.184999999999945 48.000000000000000 zM28.210000000000001 42.000000000000000 C27.772000000000048 37.730999999999995 27.772000000000048 34.263000000000034 28.210000000000036 30.000000000000000 L37.000000000000000 30.000000000000000 L37.000000000000000 42.000000000000000 L28.210000000000036 42.000000000000000 zM29.184999999999999 24.000000000000000 C30.649000000000001 17.255999999999972 33.355000000000018 11.405999999999949 37.000000000000000 7.025999999999954 L37.000000000000000 24.000000000000000 L29.184999999999945 24.000000000000000 zM50.814999999999998 24.000000000000000 L43.000000000000000 24.000000000000000 L43.000000000000000 7.025999999999954 C46.644999999999982 11.405999999999949 49.350999999999999 17.255999999999972 50.815000000000055 24.000000000000000 zM51.789999999999999 30.000000000000000 C52.227999999999952 34.269000000000005 52.227999999999952 37.736999999999966 51.789999999999964 42.000000000000000 L43.000000000000000 42.000000000000000 L43.000000000000000 30.000000000000000 L51.789999999999964 30.000000000000000 zM12.523000000000000 48.000000000000000 L23.023000000000025 48.000000000000000 C24.172000000000025 53.879999999999995 26.178999999999974 59.253000000000043 28.866999999999962 63.834000000000060 C21.562000000000012 60.903000000000020 15.676000000000045 55.187999999999988 12.523000000000025 48.000000000000000 zM10.000000000000000 36.000000000000000 C10.000000000000000 33.945000000000050 10.210000000000036 31.937999999999988 10.605999999999995 30.000000000000000 L22.164999999999964 30.000000000000000 C21.778000000000020 34.136999999999944 21.802000000000021 38.150999999999954 22.164999999999964 42.000000000000000 L10.605999999999995 42.000000000000000 C10.210000000000036 40.062000000000012 10.000000000000000 38.054999999999950 10.000000000000000 36.000000000000000 zM28.867000000000001 8.166000000000000 C26.178999999999974 12.746999999999957 24.172000000000025 18.120000000000005 23.023000000000025 24.000000000000000 L12.523000000000025 24.000000000000000 C15.676000000000045 16.812000000000012 21.562000000000012 11.096999999999980 28.866999999999962 8.166000000000054 zM67.477000000000004 24.000000000000000 L56.976999999999975 24.000000000000000 C55.827999999999975 18.120000000000005 53.821000000000026 12.746999999999957 51.133000000000038 8.166000000000054 C58.437999999999988 11.096999999999980 64.323999999999955 16.812000000000012 67.476999999999975 24.000000000000000 z" />
<glyph unicode="M" horiz-adv-x="56" d="M38.733973022000001 0.000000000000000 C31.387571191500001 1.522778786499998 25.772460164499989 7.079929531299967 21.112132501500014 12.625657886100043 C13.178423076299964 22.569860798700006 7.312489056399954 34.322579739399998 4.776346319099957 46.822637059500039 C3.638789972099971 53.259521823399950 3.187174476300015 60.715827383099963 7.475713718200041 66.137570611199976 C10.034069198800012 69.082404031600049 13.916313992800042 70.160362215400028 17.233075869000004 72.000000000000000 C20.682942734399944 65.267179066500034 24.132810201400048 58.534358132900024 27.582675863499958 51.801537199399945 C27.719281272199964 50.976161664299980 25.855783146500016 50.813159614300048 25.211075409000046 50.246530245899976 C23.294857402399998 49.081924764499945 20.396869168499961 48.663617403600028 19.902607275000037 46.095600572299986 C19.232136738199983 41.027564876700012 21.533391273300026 36.136805458500021 23.737776599700055 31.700140949800016 C26.026661742199963 27.705800001599982 28.556030764400020 23.264650166699994 32.914086245699991 21.286828866599990 C36.066043217399965 20.648703217500042 38.687383989499949 23.419509740200056 41.548898789900022 24.391164970199952 C45.079602605300011 17.577440002300023 48.610303412500002 10.763715034399979 52.141007227899991 3.949990066500050 C47.886538415800032 2.026428879899981 43.681369084800053 -1.134598017200005 38.733973021999986 0.000000000000000 z" />
<glyph unicode="N" horiz-adv-x="82" d="M49.077787193999995 31.860151603999999 C47.800874723699962 31.233667875200013 46.601009700299983 30.428012103600054 45.256443898000043 29.957586510900001 C42.771931229400025 29.381744619100004 40.452281838799991 30.967694342999948 38.691685345699966 32.551232550800023 C35.093880098100044 35.946470450699962 32.542042940499982 40.340347575099941 30.820415499600017 44.947540799199942 C29.801777706700022 47.914177040200002 28.941349763299968 51.177916966100042 29.806179623299954 54.290438475499968 C30.176062338799966 55.681896649100054 31.271507081499976 56.716816265500029 32.557200153200029 57.280762871699949 C33.332648823300019 57.694169689100022 34.108096839000041 58.107576179200009 34.883544854699949 58.520982996500038 C36.309078044400053 55.843338650100009 37.734607962099972 53.165693976599982 39.160141151900007 50.488049630199953 C38.089591631400026 49.887522910500024 36.959402079699998 49.379060478399992 35.928114134499992 48.717931084399993 C35.117422646199998 47.553277467299949 35.753647329200021 46.031791788299984 36.120871814600036 44.814381922200027 C37.049102623599993 42.485180048700045 38.271479492899971 40.114836468099952 40.290147467600036 38.551751973699993 C40.946410311099953 37.973966472000029 41.807972681300043 38.192920349399969 42.456978072100014 38.638003755199975 C43.240566999400016 39.053092089600000 44.024152654699947 39.468183696100027 44.807741582099993 39.883272030500052 C46.231092300800015 37.208900736399983 47.654443019399991 34.534526170200024 49.077787194000052 31.860151603999952 zM45.178143248100000 71.985553588100004 C49.569497606000027 72.437082187700014 52.787723029599988 68.678721800999938 55.745004093500029 65.994974061300013 C59.477742989200010 61.996981488900019 63.495842435600025 57.863907697900004 65.402441991700016 52.646904562500026 C65.492783861500016 48.190014556500046 65.415890202000014 43.724916234200009 65.441412352799944 39.264847411699975 C69.804172085600044 39.264847411699975 74.166935090500033 39.264847411699975 78.529694823399950 39.264847411699975 C78.529694823399950 26.176564941099969 78.529694823399950 13.088282470600006 78.529694823399950 0.000000000000000 C52.353129882200051 0.000000000000000 26.176564941099969 0.000000000000000 0.000000000000000 0.000000000000000 C0.000000000000000 13.088282470600006 0.000000000000000 26.176564941099969 0.000000000000000 39.264847411699975 C4.362760714500041 39.264847411699975 8.725521756099965 39.264847411699975 13.088282470600006 39.264847411699975 C13.088282470600006 50.171749361399975 13.088282470600006 61.078651638300016 13.088282470600006 71.985553588100004 C23.784902511599967 71.985553588100004 34.481521898199958 71.985553588100004 45.178143248100014 71.985553588100004 zM19.632423705800001 22.904494323500000 C32.720706176399972 22.904494323499989 45.808988646999978 22.904494323499989 58.897271117500054 22.904494323499989 C58.897271117500054 31.991436893399964 58.897271117500054 41.078379463200008 58.897271117500054 50.165322360300024 C58.758623669200006 54.279002588699996 53.641229561899991 54.887404200800006 50.421800016399970 54.724361830000021 C47.629751974600026 53.769751587700057 48.677380640399974 55.213868175300036 48.973372148499948 57.245949021999991 C49.173586877500043 60.341533966700013 48.551841106999973 65.056549443499989 44.722559767699977 65.441412352799944 C36.359179989700010 65.441412352799944 27.995802502200036 65.441412352799944 19.632423705799965 65.441412352799944 C19.632423705799965 51.262439785400034 19.632423705799965 37.083465909199958 19.632423705799965 22.904494323499989 z" />
<glyph unicode="O" horiz-adv-x="82" d="M43.869216969800000 11.276215706100000 C43.869216969800050 13.947664415600002 41.701087983499974 16.115793402000008 39.029639274000033 16.115793402000008 C36.358190564400047 16.115793402000008 34.190061578099971 13.947664415600002 34.190061578099971 11.276215706099947 C34.190061578099971 8.604770249100056 36.358190564400047 6.436638010300044 39.029639274000033 6.436638010300044 C41.701087983499974 6.436638010300044 43.869216969800050 8.604770249100056 43.869216969800050 11.276215706099947 zM35.157977117300000 20.584179713600001 L42.901301430699959 20.584179713599951 L42.901301430699959 49.017538952399946 L35.157977117299993 49.017538952399946 L35.157977117299993 20.584179713599951 zM78.059278547899993 0.000000000000000 L0.000000000000000 0.000000000000000 L39.029639274000033 71.554338668900016 L78.059278547900021 0.000000000000000 z" />
<glyph unicode="P" horiz-adv-x="50" d="M45.992122838500002 51.840834456300001 C46.064542878600037 43.325065473600034 40.520523192099972 36.409609508599942 36.907468479299951 29.137842143799958 C35.553213727799971 26.672286419199963 34.922691183900042 23.534109688099988 34.570675166000001 21.030053993500019 C32.633440591599992 21.030053993500019 30.696209018400054 21.030053993500019 28.758974444000046 21.030053993500019 C28.717287151899995 29.747809161100008 34.737892528499970 36.616638385100032 38.165788436599996 44.173355348400037 C40.869877105800015 49.651518417299940 40.766562250300012 56.960681593999993 36.291063791599981 61.493436002799967 C29.717539061300045 68.372820905399976 16.614259156600042 67.385874715199975 11.772217153800057 58.961130790200059 C8.788181661200042 53.832101043499961 9.886387002199967 47.402948499499985 12.629572889100018 42.420558979899965 C16.122551993999991 35.610885193799959 21.241492155500055 29.040994971099963 21.204840952399991 21.030053993500019 C19.213013732700006 21.030053993500019 17.221188613900040 21.030053993500019 15.229362294499992 21.030053993500019 C15.032832973200016 28.233675090899965 9.964621054100007 33.912165556600030 7.050081488799947 40.166979083900060 C3.353277336300039 47.054589198300050 2.631776554199973 55.969250043400052 6.994756839799948 62.732770985000002 C12.999083163800037 72.223263107700006 26.785889998899961 74.678601424000021 36.241300149399990 69.090958642399983 C42.413810537000018 65.683332692500016 46.147590327100033 58.857568031800042 45.992122838499995 51.840834456299945 zM33.987143113999998 16.528186596800001 C33.766971785899955 14.461826460499992 31.413791675199946 15.144630691100019 29.984841939800049 15.027564131299982 C25.816661958400005 15.027564131299982 21.648478975600028 15.027564131299982 17.480295992899983 15.027564131299982 C14.244985470200049 15.960837257600019 17.130579828899954 18.829157050700019 19.314860979400009 18.028809062400001 C23.705412201599984 18.028809062400001 28.095966425000029 18.028809062400001 32.486520648399960 18.028809062400001 C33.290133991200037 18.048917403399969 34.007149412699960 17.331799939600046 33.987143113999991 16.528186596799969 zM33.987143113999998 10.525696734600000 C33.766971785899955 8.459336598299956 31.413791675199946 9.142140828800052 29.984841939800049 9.025074269099946 C25.816661958400005 9.025074269099946 21.648478975600028 9.025074269099946 17.480295992899983 9.025074269099946 C14.244985470200049 9.958347395300052 17.130579828899954 12.826667188400052 19.314860979400009 12.026319200199964 C23.705412201599984 12.026319200199964 28.095966425000029 12.026319200199964 32.486520648399960 12.026319200199964 C33.290133991200037 12.046427541200046 34.007149412699960 11.329310077400010 33.987143113999991 10.525696734600047 zM28.882025486200000 1.044763997200000 C27.435443436800028 -0.506303393099984 25.213012561599953 0.172086006100017 23.341727343300022 0.021339475699961 C21.006809808100002 0.203560061700045 19.981647565800017 2.602422121500013 18.449647984799981 4.057653758699985 C18.180378390499982 4.650783791900039 16.170409845699965 6.034009560700042 17.230320201700010 6.023829337899997 C22.565824495000015 6.023829337899997 27.901326687500045 6.023829337899997 33.236831881200033 6.023829337899997 C31.785228749100042 4.364140891000034 30.333628618300054 2.704452444099957 28.882025486199950 1.044763997199993 zM17.990507631200000 50.106114886100002 C16.802014638400010 50.259178377600051 15.613521645699961 50.412241869099944 14.425028653000027 50.565305360599950 C14.920420443899957 56.201175747299999 19.292582738299984 61.298699925299957 24.983408320700050 62.111094610600048 C25.202499200599959 60.933606282699998 25.421590080600026 59.756117654599961 25.640680960599980 58.578629326700025 C21.378916159599953 57.992381748299977 18.372893546699970 54.276730978099977 17.990507631199989 50.106114886100045 z" />
<glyph unicode="Q" horiz-adv-x="53.21798134011874" d="M47.631891433418104 6.000000000000000 C47.631891433418104 2.687999999999988 44.943891433418116 0.000000000000000 41.631891433418104 0.000000000000000 L11.631891433418104 0.000000000000000 C8.319891433418093 0.000000000000000 5.631891433418104 2.687999999999988 5.631891433418104 6.000000000000000 L5.631891433418104 66.000000000000000 C5.631891433418104 69.312000000000012 8.319891433418093 72.000000000000000 11.631891433418104 72.000000000000000 L41.631891433418104 72.000000000000000 C44.943891433418116 72.000000000000000 47.631891433418104 69.312000000000012 47.631891433418104 66.000000000000000 L47.631891433418104 6.000000000000000 zM20.631891433418104 64.500000000000000 C20.631891433418104 63.672000000000025 21.303891433418130 63.000000000000000 22.131891433418104 63.000000000000000 L31.131891433418104 63.000000000000000 C31.959891433418079 63.000000000000000 32.631891433418104 63.672000000000025 32.631891433418104 64.500000000000000 C32.631891433418104 65.327999999999975 31.959891433418079 66.000000000000000 31.131891433418104 66.000000000000000 L22.131891433418104 66.000000000000000 C21.303891433418130 66.000000000000000 20.631891433418104 65.327999999999975 20.631891433418104 64.500000000000000 zM29.628891433418104 9.000000000000000 C29.628891433418062 10.655999999999949 28.287891433418054 12.000000000000000 26.631891433418104 12.000000000000000 C24.972891433418113 12.000000000000000 23.631891433418104 10.655999999999949 23.631891433418104 9.000000000000000 C23.631891433418104 7.344000000000051 24.972891433418113 6.000000000000000 26.631891433418104 6.000000000000000 C28.287891433418054 6.000000000000000 29.628891433418062 7.344000000000051 29.628891433418062 9.000000000000000 zM41.631891433418104 57.072000000000003 L11.631891433418104 57.072000000000003 L11.631891433418104 15.000000000000000 L41.631891433418104 15.000000000000000 L41.631891433418104 57.072000000000003 z" />
<glyph unicode="R" horiz-adv-x="91.368240343347679" d="M82.774248927038570 48.000004427999997 C82.774248927038570 34.746006863399998 72.028250901638557 24.000008837999985 58.774253337038544 24.000008837999985 C45.520255772438531 24.000008837999985 34.774257747038519 34.746006863399998 34.774257747038519 48.000004428000011 C34.774257747038519 61.254001992499980 45.520255772438531 72.000000017999980 58.774253337038544 72.000000017999980 C72.028250901638557 72.000000017999980 82.774248927038570 61.254001992499980 82.774248927038570 48.000004428000011 zM73.774250580738567 57.000002774199999 C73.774250580738567 60.312002165600006 71.086251074738584 63.000001671700034 67.774251683238617 63.000001671700034 C64.462252291838581 63.000001671700034 61.774252785738554 60.312002165600006 61.774252785738554 57.000002774199970 C61.774252785738554 53.688003382800048 64.462252291838581 51.000003876700021 67.774251683238617 51.000003876700021 C71.086251074738584 51.000003876700021 73.774250580738567 53.688003382800048 73.774250580738567 57.000002774199970 zM48.127255293438573 19.989009575000001 C45.676255743838624 17.326010064300021 40.774226644538544 11.999981021400004 40.774256644538582 12.000011042999972 C38.774257012038561 12.000011042999972 34.774227747038594 11.999981015000003 34.774257747038519 12.000011042999972 C34.774257747038519 10.000011410499951 34.774227747038594 5.999982117500053 34.774257747038519 6.000012145500023 C32.774258114538611 6.000012145500023 28.774228849538531 5.999982121199992 28.774258849538569 6.000012145500023 C28.774258849538569 4.000012513000001 28.774228849538531 -0.000016776299958 28.774258849538569 0.000013247999959 C22.774259952038619 0.000013247999959 10.774232157038568 -0.000016792800011 10.774262157038606 0.000013247999959 C10.774262157038606 5.000012329199990 10.774232157038568 14.999980451000056 10.774262157038606 15.000010491699982 C17.639260895638586 21.949009214799958 31.369228372738576 35.846976604899965 31.369258372738614 35.847006661099954 C34.609257777338598 28.575007997299963 40.654256666538572 22.839009051299968 48.127255293438566 19.989009574999955 z" />
<glyph unicode="a" horiz-adv-x="80" d="M24.833242709672959 71.669868105700004 L24.833242709672959 -0.062494103400013 L4.338282078472957 -0.062494103400013 L4.338282078472957 71.669868105700004 L24.833242709672959 71.669868105700004 zM76.070644287672962 72.000000000000000 L76.070644287672962 0.267637790799995 L24.833242709672959 36.133818895400054 L76.070644287672962 72.000000000000000 zM-27.899587414027046 15.641383156700000 C-27.899587414026996 15.641383156700044 -27.899587414026996 15.641383156700044 -27.899587414026996 15.641383156700044 C-27.899587414026996 15.675264919124970 -27.899587414026996 15.743028443975049 -27.899587414026996 15.776910206399975 C-27.899587414026996 15.776910206399975 -27.899587414026996 15.776910206399975 -27.899587414026996 15.776910206399975 C-27.899587414026996 15.743028443975049 -27.899587414026996 15.675264919124970 -27.899587414026996 15.641383156700044 z" />
<glyph unicode="b" horiz-adv-x="104" d="M51.910900473933680 0.000000000000000 C51.910780473933642 -0.000121618199955 19.910900473933680 24.000000000000000 3.910900473933680 36.000000000000000 C3.910780473933642 35.999886522800011 35.910900473933680 60.000000000000000 51.910900473933680 72.000000000000000 C51.910780473933642 71.999878381799988 51.910900473933680 24.000000000000000 51.910900473933680 0.000000000000000 zM99.910900473933680 72.000000000000000 C99.910780473933642 71.999881520600013 99.910900473933680 24.000000000000000 99.910900473933680 0.000000000000000 C99.910780473933642 -0.000118479400044 67.910900473933680 24.000000000000000 51.910900473933680 36.000000000000000 C51.910780473933642 35.999878381800045 83.910900473933680 60.000000000000000 99.910900473933680 72.000000000000000 z" />
<glyph unicode="c" horiz-adv-x="70" d="M64.993364928910069 72.000000000000000 L64.993364928910069 0.000000000000000 L4.993364928910069 36.000000000000000 L64.993364928910069 72.000000000000000 z" />
<glyph unicode="d" horiz-adv-x="68" d="M64.000000000000000 36.000000000000000 L4.000000000000000 0.000000000000000 L4.000000000000000 72.000000000000000 L64.000000000000000 36.000000000000000 z" />
<glyph unicode="e" horiz-adv-x="104" d="M52.000052920000002 36.000000000000000 C51.999932919999992 35.999866478799959 20.000052920000030 12.000000000100044 4.000052920000030 0.000000000000000 C3.999932919999992 -0.000123150800050 4.000052920000030 48.000000000000000 4.000052920000030 72.000000000000000 C3.999932919999992 71.999876849299994 36.000052920000030 48.000000000000000 52.000052920000030 36.000000000000000 zM52.000052920000002 72.000000000000000 C51.999932919999992 71.999866478800016 84.000052920000030 48.000000000000000 100.000052920000030 36.000000000000000 C99.999932919999992 35.999881982800048 68.000052920000030 12.000000000000000 52.000052920000030 0.000000000000000 C51.999932919999992 -0.000133521200041 52.000052920000030 24.000000000000000 52.000052920000030 36.000000000000000 C51.999932919999992 35.999866478799959 52.000052920000030 60.000000000000000 52.000052920000030 72.000000000000000 z" />
<glyph unicode="f" horiz-adv-x="92" d="M64.000000000000000 36.000000000000000 L4.000000000000000 0.000000000000000 L4.000000000000000 72.000000000000000 L64.000000000000000 36.000000000000000 zM64.000000000000000 72.000000000000000 L88.000000000000000 72.000000000000000 L88.000000000000000 0.000000000000000 L64.000000000000000 0.000000000000000 L64.000000000000000 36.000000000000000 L64.000000000000000 72.000000000000000 z" />
<glyph unicode="g" horiz-adv-x="78" d="M63.977976758400004 65.977977058299999 C63.977946766500054 65.977947066400020 63.977976758400018 25.992667837100043 63.977976758400018 6.000013226400029 C63.977946766500054 5.999983234499950 23.992667737099964 6.000013226400029 4.000013226400029 6.000013226400029 C3.999983234499950 5.999983234400020 4.000013226400029 45.985322447700014 4.000013226400029 65.977977058299984 C3.999983234499950 65.977947066299976 43.985322247699969 65.977977058299984 63.977976758400018 65.977977058299984 zM9.998395321600000 11.998395321600000 C9.998365329700050 11.998365329799981 41.985861549300012 11.998395321600015 57.979594663200032 11.998395321600015 C57.979564671299954 11.998365329700050 57.979594663200032 43.981956602600007 57.979594663200032 59.973737243100004 C57.979564671299954 59.973707251200040 25.992128435500035 59.973737243100004 9.998395321600015 59.973737243100004 C9.998365329700050 59.973707251200040 9.998395321600015 27.990175962100011 9.998395321600015 11.998395321600015 z" />
<glyph unicode="h" horiz-adv-x="78" d="M63.954508278900001 35.395704309599999 C63.954508278899993 25.597140613100009 63.954478301600034 5.999983242699955 63.954508278899993 6.000013220000028 C43.969675122600052 6.000013220000028 3.999978832699981 5.999983242699955 4.000008810000054 6.000013220000028 C4.000008810000054 25.984846376299970 3.999978832699981 65.954482711600008 4.000008810000054 65.954512688899968 C22.258152381599984 65.954512688899968 58.774409547499999 65.954482711699939 58.774439524799959 65.954512688899968 C56.824919050400013 63.956029373299998 52.925848124300046 59.959032764799986 52.925878101600006 59.959062742000015 C38.615738319999991 59.959062742000015 9.995428779600047 59.959032764699941 9.995458756900007 59.959062742000015 C9.995458756900007 43.971196216999942 9.995428779600047 11.995433189600021 9.995458756900007 11.995463166899981 C25.983325281899965 11.995463166899981 57.959028354699967 11.995433189600021 57.959058332000041 11.995463166899981 C57.959058332000041 17.759089049099998 57.959028354699967 29.286310836499979 57.959058332000041 29.286340813700008 C59.957541647600010 31.322795312299945 63.954478301600034 35.395674332300018 63.954508278899993 35.395704309599978 zM75.945408172699999 56.172936100500003 C75.945378195400053 56.172906123299981 50.964366727299989 30.718254109400050 38.473846004599977 17.990913113800048 C38.473816027300018 17.990883136499974 23.485221137400003 32.525882268300052 15.990908703799960 39.793366845599962 C15.990878726500000 39.793336868400047 22.176214565600048 45.982669674099952 25.268867496600024 49.077321088400026 C25.268837519299950 49.077291111199997 34.072186501899978 40.731654762299968 38.473846004599977 36.558821599300018 C38.473816027300018 36.558791621999944 57.267583104799996 55.822202278700047 66.664451654899949 65.453892618299960 C66.664421677599989 65.453862641100045 72.851756000099954 59.266588273099956 75.945408172700013 56.172936100500010 z" />
<glyph unicode="i" horiz-adv-x="98" d="M94.947368421100009 57.922105263200002 C94.947330526299993 57.922067365199950 57.052631578899991 19.307368421100023 38.105263157900026 0.000000000000000 C38.105225263200055 -0.000037906800003 15.368421052599956 22.049684210500004 4.000000000000000 33.074526315799972 C3.999962105300028 33.074488488599968 13.382736842100030 42.462315789500053 18.074105263199954 47.156210526300015 C18.074067368400051 47.156172671200011 31.428210526299949 34.496842105299947 38.105263157900026 28.167157894700040 C38.105225263200055 28.167119987999968 66.614736842100001 57.389052631599952 80.869473684199988 72.000000000000000 C80.869435789500017 71.999962105500003 90.254736842099987 62.614736842100001 94.947368421100009 57.922105263200024 z" />
<glyph unicode="j" horiz-adv-x="78" d="M63.500732378500004 0.337023308100000 C63.500703072200054 0.336994001900052 47.313844800100014 16.363702705200012 39.220401011000035 24.377042403800033 C39.220371704599984 24.377013097000031 23.127293831299994 8.125680801299950 15.080740241500052 0.000000000000000 C15.080710935100001 -0.000029297900028 7.918262285900028 7.162477955600025 4.337023308100015 10.743716933400037 C4.336994001699964 10.743687631799958 20.369563980200041 26.985309744500000 28.385834316199976 35.106106149999960 C28.385805009800038 35.106076836700026 12.128611438699977 51.205074604499941 4.000000000000000 59.254558831799955 C3.999970693599948 59.254529501699949 11.162477955600025 66.417036787399979 14.743716933400037 69.998275765199992 C14.743687627100030 69.998246456900006 30.979448469499971 53.971596368099995 39.097314237600017 45.958256669499974 C39.097284931199965 45.958227356799966 55.141577459500013 62.209618271999943 63.163709070499976 70.335299073300007 C63.163679764100038 70.335269767100044 70.386753533700016 63.112254610099967 73.998275765199992 59.500732378499947 C73.998246458899985 59.500703071999965 57.977457642999980 43.319706075100044 49.967048581900031 35.229192923300047 C49.967019275499979 35.229163623600016 66.212548909500015 19.190790976300036 74.335299073300007 11.171590002800031 C74.335269766899955 11.171560697099949 67.112254610099967 3.948545539599991 63.500732378499947 0.337023308100015 z" />
<glyph unicode="k" horiz-adv-x="60" d="M55.813376882900002 52.179575699399997 L37.914210602599951 40.246797890000039 L37.914210602599951 49.667412452300027 L14.990716092900016 49.667412452300027 L14.990716092900016 55.005759894600033 L37.914210602599951 55.005759894600033 L37.914210602599951 63.798333428299998 L55.813376882900002 52.179575699399948 zM31.005760154800001 71.020803956500004 L31.005760154799987 60.344108204399959 L25.667411844999947 60.344108204399959 L25.667411844999947 65.682455646699964 L9.338347962799958 65.682455646699964 L9.338347962799958 33.338348309800040 L25.667411844999947 33.338348309800040 L25.667411844999947 44.329064142499988 L31.005760154799987 44.329064142499988 L31.005760154799987 28.000000000000000 L4.000000000000000 28.000000000000000 L4.000000000000000 71.020803956500004 L31.005760154799987 71.020803956500004 z" />
<glyph unicode="l" horiz-adv-x="66" d="M40.616404676700000 70.108901975999999 L40.616404676699972 59.409099544300034 L61.325700541700030 59.409099544300034 L61.325700541700030 28.000000000000000 L24.739277750899987 28.000000000000000 L24.739277750899987 38.354648412299980 L4.029981789999965 38.354648412299980 L4.029981789999965 70.108901975999970 L40.616404676699972 70.108901975999970 zM9.552460783299999 59.409099544299998 L24.739277750899987 59.409099544300034 L35.439080470500016 59.409099544300034 L35.439080470500016 64.586422790699999 L9.552460783300035 64.586422790699999 L9.552460783300035 59.409099544300034 zM9.552460783299999 43.877126925799999 L24.739277750899987 43.877126925799985 L24.739277750899987 54.231775338099965 L9.552460783300035 54.231775338099965 L9.552460783300035 43.877126925799985 zM30.261756264399999 49.054451131900002 L56.148376335499961 49.054451131900009 L56.148376335499961 54.231775338099965 L30.261756264399992 54.231775338099965 L30.261756264399992 49.054451131900009 zM30.261756264399999 33.522479473200001 L56.148376335499961 33.522479473199951 L56.148376335499961 43.877126925799985 L30.261756264399992 43.877126925799985 L30.261756264399992 33.522479473199951 z" />
<glyph unicode="m" horiz-adv-x="56" d="M51.345976757000003 68.108363265099996 L51.345976757000017 28.000000000000000 L0.044582409999975 28.000000000000000 L0.044582409999975 68.108363265100024 L51.345976757000017 68.108363265100024 zM25.850738139200001 46.033217264800001 L42.951203036399988 63.133682075899969 L8.750273414299954 63.133682075899969 L25.850738139199962 46.033217264799987 zM5.019263082300000 33.285598386600000 L46.682213626800035 33.285598386599986 L46.682213626800035 60.024506655699952 L25.850738139199962 39.193032029599976 L5.019263082299972 60.024506655699952 L5.019263082299972 33.285598386599986 z" />
<glyph unicode="n" horiz-adv-x="80.444723618090393" d="M76.280462699746195 66.708984299999997 L54.594914699746141 45.023437500000000 L70.971869699746208 45.023437500000000 L70.948430699746154 37.500000000000000 L41.815619699746208 37.535157000000027 L41.780462699746181 66.667968599999995 L49.303898699746242 66.691406400000005 L49.303898699746242 50.314453200000003 L70.989446699746168 72.000000000000000 L76.280462699746181 66.708984299999997 zM38.745305699746197 34.464843000000002 L38.780462699746181 5.332032000000027 L31.257025199746181 5.308592999999973 L31.257025199746181 21.685548000000040 L9.571478399746184 0.000000000000000 L4.280462699746181 5.291016000000013 L25.966009499746178 26.976564000000053 L9.589056299746176 26.976564000000053 L9.612494099746186 34.500000000000000 L38.745305699746154 34.464842999999973 z" />
<glyph unicode="o" horiz-adv-x="55.370739796133194" d="M3.621625716499999 36.060360893599999 L39.255626176799979 72.060360428600006 L51.621626336499958 60.060360003599953 L27.621626026500053 36.060360893599977 L51.621626336499958 12.060360583599959 L39.255626176799979 0.060360428600006 L3.621625716500034 36.060360893599977 z" />
<glyph unicode="p" horiz-adv-x="55.370739796133194" d="M15.987625876199999 0.060360428600000 L3.621625716500034 12.060360583599959 L27.621626026500053 36.060360893599977 L3.621625716500034 60.060360003599953 L15.987625876200013 72.060360428600006 L51.621626336499958 36.060360893599977 L15.987625876200013 0.060360428600006 z" />
<glyph unicode="q" horiz-adv-x="79.553167849296756" d="M3.723466889099999 45.768777891600003 L15.723467044099948 58.134778051300032 L39.723467354099967 34.134777741300013 L63.723466464100056 58.134778051300032 L75.723466889099996 45.768777891600052 L39.723467354099967 10.134777431299995 L3.723466889099996 45.768777891600052 z" />
<glyph unicode="r" horiz-adv-x="79.553167849296756" d="M39.723467354100002 58.134778051300003 L75.723466889099996 22.500777590999974 L63.723466464100056 10.134777431299995 L39.723467354099967 34.134777741300013 L15.723467044099948 10.134777431299995 L3.723466889099996 22.500777590999974 L39.723467354099967 58.134778051300032 z" />
<glyph unicode="s" horiz-adv-x="67.978873239436666" d="M61.862703247399999 20.967419041399999 C61.862679840700025 20.967395634199988 47.818684945699943 20.967419041400035 40.796675794900011 20.967419041400035 C40.796652388199959 20.967395621399987 40.796675794900011 6.923400739700014 40.796675794900011 -0.098608411199962 C40.796652388199959 -0.098631831200009 31.433996927099997 -0.098608411199962 26.752657493199990 -0.098608411199962 C26.752634086500052 -0.098631829900000 26.752657493199990 13.945409890499946 26.752657493199990 20.967419041400035 C26.752634086500052 20.967395622599952 12.708639191499969 20.967419041400035 5.686630040700038 20.967419041400035 C5.686606633999986 20.967395643399982 5.686630040700038 30.330097909100004 5.686630040700038 35.011437343000011 C5.686606633999986 35.011413945100003 19.730648342300015 35.011437343000011 26.752657493199990 35.011437343000011 C26.752634086500052 35.011413924299973 26.752657493199990 49.055455644700032 26.752657493199990 56.077464795600008 C26.752634086500052 56.077441376800039 36.115336361000004 56.077464795600008 40.796675794900011 56.077464795600008 C40.796652388199959 56.077441375599960 40.796675794900011 42.033446493899987 40.796675794900011 35.011437343000011 C40.796652388199959 35.011413922999964 54.840694096600032 35.011437343000011 61.862703247399963 35.011437343000011 C61.862679840700025 35.011413935900009 61.862703247399963 25.648758475300042 61.862703247399963 20.967419041400035 z" />
<glyph unicode="t" horiz-adv-x="77.338028169014024" d="M71.798590853007013 44.692020934399999 C49.544133610507060 44.692020934400034 5.035191307307059 44.691993115500054 5.035219125407025 44.692020934400034 C5.035219125407025 48.401097141500031 5.035191307307059 55.819221736800046 5.035219125407025 55.819249555700026 C27.289676367906964 55.819249555700026 71.798563034907033 55.819221737599946 71.798590853006999 55.819249555700026 C71.798590853006999 52.110173348600028 71.798563034907033 44.691993116299955 71.798590853006999 44.692020934400034 zM71.798590853007013 22.437563691899999 C71.798563034907033 22.437535873800016 27.289676367906964 22.437563691899982 5.035219125407025 22.437563691899982 C5.035191307307059 22.437535873000002 5.035219125407025 29.855716106000045 5.035219125407025 33.564792313100043 C5.035191307307059 33.564764494199949 49.544133610507060 33.564792313100043 71.798590853006999 33.564792313100043 C71.798563034907033 33.564764495100007 71.798590853006999 26.146639898999979 71.798590853006999 22.437563691899982 zM71.798590853007013 0.183106449300000 C71.798563034907033 0.183078631200033 27.289676367906964 0.183106449299999 5.035219125407025 0.183106449299999 C5.035191307307059 0.183078630400018 5.035219125407025 7.601258863499993 5.035219125407025 11.310335070599990 C5.035191307307059 11.310307251700010 49.544133610507060 11.310335070599990 71.798590853006999 11.310335070599990 C71.798563034907033 11.310307252500024 71.798590853006999 3.892182656399996 71.798590853006999 0.183106449299999 z" />
<glyph unicode="u" horiz-adv-x="67.978873239436666" d="M61.862703247399999 20.967419041399999 L5.686630040700038 20.967419041400035 L5.686630040700038 35.011437343000011 L61.862703247399963 35.011437343000011 L61.862703247399963 20.967419041400035 z" />
<glyph unicode="v" horiz-adv-x="0.26094420600850299" d="M82.543776788073046 45.000004960706882 C78.543777523072890 45.000004960706860 70.543748993077998 44.999974960557665 70.543778993072692 45.000004960706860 C70.543778993072578 50.000004041957027 70.543748993078111 59.999972204308165 70.543778993072692 60.000002204457360 C65.543779911822412 60.000002204457360 55.543751749327612 59.999972205692416 55.543781749322079 60.000002204457360 C55.543781749321965 64.000001469457402 55.543751749327612 71.999970000692770 55.543781749322079 71.999999999457771 C64.543780095572288 71.999999999457771 82.543746788078579 71.999969998711663 82.543776788073046 71.999999999457771 C82.543776788073046 63.000001653207505 82.543746788078579 44.999974959960809 82.543776788073046 45.000004960706860 zM55.543781749322129 0.000013229455355 C55.543781749322193 4.000012494455518 55.543751749327612 11.999981025690772 55.543781749322079 12.000011024455716 C60.543780830572246 12.000011024455716 70.543748993078111 11.999981024306521 70.543778993072692 12.000011024455716 C70.543778993072692 17.000010105705996 70.543748993078111 26.999978268057021 70.543778993072692 27.000008268206329 C74.543778258072734 27.000008268206329 82.543746788078579 26.999978267460165 82.543776788073046 27.000008268206329 C82.543776788073046 18.000009921956007 82.543746788078579 -0.000016771290689 82.543776788073046 0.000013229455362 C73.543778441822724 0.000013229455362 55.543751749327612 -0.000016769309582 55.543781749322079 0.000013229455362 zM10.543790018070581 27.000008268206273 C14.543789283070623 27.000008268206329 22.543757813076468 26.999978284475446 22.543787813071049 27.000008268206329 C22.543787813070935 22.000009186955822 22.543757813076468 11.999981040724947 22.543787813071049 12.000011024455716 C27.543786894321215 12.000011024455716 37.543755056826967 11.999981023021974 37.543785056821548 12.000011024455716 C37.543785056821434 8.000011759455674 37.543755056826967 -0.000016771978380 37.543785056821548 0.000013229455362 C28.543786710571112 0.000013229455362 10.543760018076000 -0.000016734164433 10.543790018070581 0.000013229455362 C10.543790018070581 9.000011575705571 10.543760018076000 26.999978304586534 10.543790018070581 27.000008268206329 zM37.348076938276442 71.999999999457771 C37.348076938276449 68.000000734457672 37.348046938281868 59.999972169355829 37.348076938276449 60.000002204457360 C32.348077857026169 60.000002204457360 22.348049694531483 59.999972148971779 22.348079694525950 60.000002204457360 C22.348079694525950 55.000003123206966 22.348049694531483 44.999974905221279 22.348079694525950 45.000004960706860 C18.348080429525908 45.000004960706860 10.348051899530901 44.999974967192315 10.348081899525482 45.000004960706860 C10.348081899525482 54.000003306957296 10.348051899531015 71.999970005943339 10.348081899525482 71.999999999457771 C19.348080245775691 71.999999999457771 37.348046938281868 71.999969964356296 37.348076938276449 71.999999999457771 z" />
<glyph unicode="w" horiz-adv-x="84.806866952789619" d="M78.523605150214635 36.000000000000014 C78.523605150214621 16.187295000000063 62.336310150214672 0.000000000000000 42.523605150214621 0.000000000000000 C22.710899850214560 0.000000000000000 6.523605150214621 16.187295000000063 6.523605150214621 36.000000000000000 C6.523605150214621 55.812705299999948 22.710899850214560 72.000000000000000 42.523605150214621 72.000000000000000 C62.336310150214558 72.000000000000000 78.523605150214621 55.812705300000061 78.523605150214621 36.000000000000000 zM18.265792650214621 36.000000000000014 C18.265792650214507 22.533650999999963 29.057256450214595 11.742186000000061 42.523605150214621 11.742186000000061 C55.989954150214658 11.742186000000061 66.781419150214560 22.533650999999963 66.781419150214674 36.000000000000000 C66.781416150214568 49.466348700000026 55.989954150214658 60.257812500000000 42.523605150214621 60.257812500000000 C29.057256450214595 60.257812500000000 18.265792650214621 49.466348699999912 18.265792650214621 36.000000000000000 zM51.523605150214621 36.000000000000014 C51.523605150214621 38.296100594190307 50.511154481332142 40.740372730240438 48.887566180893600 42.363961030678979 C47.263977880454945 43.987549331117634 44.819705744405042 45.000000000000000 42.523605150214621 45.000000000000000 C40.227504556023973 45.000000000000000 37.783232419974297 43.987549331117748 36.159644119535756 42.363961030678979 C34.536055819097101 40.740372730240097 33.523605150214621 38.296100594190307 33.523605150214621 36.000000000000000 C33.523605150214621 33.703899405809693 34.536055819096987 31.259627269759903 36.159644119535756 29.636038969321135 C37.783232419974183 28.012450668882138 40.227504556024087 27.000000000000000 42.523605150214621 27.000000000000000 C44.819705744405042 27.000000000000000 47.263977880454945 28.012450668882366 48.887566180893600 29.636038969321135 C50.511154481332142 31.259627269759449 51.523605150214507 33.703899405809693 51.523605150214621 36.000000000000000 z" />
</font>
</defs>
</svg>
